The.Remains.of.the.Day.1993.BluRay.1080p.10Bit.Hindi.English.DD5....

  • Category Movies
  • Type Dubs/Dual Audio
  • Language Hindi
  • Total size 2.0 GB
  • Uploaded By tmb001
  • Downloads 156
  • Last checked 11 months ago
  • Date uploaded 11 months ago
  • Seeders 2
  • Leechers 3

The Remains of the Day

DramaRomance

A rule bound head butler's world of manners and decorum in the household he maintains is tested by the arrival of a housekeeper who falls in love with him in post-WWI Britain. The possibility of romance and his master's cultivation of ties with the Nazi cause challenge his carefully maintained veneer of servitude.

Infohash : 01CC647E2B7E770DED419552C1E2C8458DD80D13

Warning! Use a VPN When Downloading Torrents!
Your IP Address is . Location
Your Internet Provider can see when you download torrents! Hide your IP Address with a VPN
1337x recommends using Trust.Zone VPN to hide your torrenting. It's FREE HIDE ME NOW




Media Info



Format : Matroska
Format version : Version 4
File size : 2.01 GiB
Duration : 2 h 14 min
Overall bit rate : 2 143 kb/s
Encoded date : UTC 2023-03-16 14:35:20
Writing library : Lavf59.27.100
ErrorDetectionType : Per level 1

Video
ID : 1
Format : HEVC
Format/Info : High Efficiency Video Coding
Format profile : Main 10@L4@High
Codec ID : V_MPEGH/ISO/HEVC
Duration : 2 h 14 min
Bit rate : 1 652 kb/s
Width : 1 920 pixels
Height : 804 pixels
Display aspect ratio : 2.40:1
Frame rate mode : Constant
Frame rate : 23.976 (24000/1001) FPS
Color space : YUV
Chroma subsampling : 4:2:0 (Type 0)
Bit depth : 10 bits
Bits/(Pixel*Frame) : 0.045
Stream size : 1.55 GiB (77%)
Writing library : x265 3.5+1-f0c1022b6:[Windows][GCC 10.2.0][64 bit] 10bit
Default : Yes
Forced : No
Color range : Limited
Color primaries : BT.709
Transfer characteristics : BT.709
Matrix coefficients : BT.709

Audio #1
ID : 2
Format : AC-3
Format/Info : Audio Coding 3
Commercial name : Dolby Digital
Codec ID : A_AC3
Duration : 2 h 14 min
Bit rate mode : Constant
Bit rate : 224 kb/s
Channel(s) : 6 channels
Channel layout : L R C LFE Ls Rs
Sampling rate : 48.0 kHz
Frame rate : 31.250 FPS (1536 SPF)
Compression mode : Lossy
Delay relative to video : -5 ms
Stream size : 215 MiB (10%)
Title : themoviesboss
Language : Hindi
Service kind : Complete Main
Default : Yes
Forced : No

Audio #2
ID : 3
Format : AC-3
Format/Info : Audio Coding 3
Commercial name : Dolby Digital
Codec ID : A_AC3
Duration : 2 h 14 min
Bit rate mode : Constant
Bit rate : 224 kb/s
Channel(s) : 6 channels
Channel layout : L R C LFE Ls Rs
Sampling rate : 48.0 kHz
Frame rate : 31.250 FPS (1536 SPF)
Compression mode : Lossy
Delay relative to video : -5 ms
Stream size : 215 MiB (10%)
Title : themoviesboss
Language : English
Service kind : Complete Main
Default : No
Forced : No

Text #1
ID : 4
Format : PGS
Codec ID : S_HDMV/PGS
Codec ID/Info : Picture based subtitle format used on BDs/HD-DVDs
Duration : 2 h 10 min
Title : themoviesboss
Language : English
Default : Yes
Forced : Yes

Text #2
ID : 5
Format : PGS
Codec ID : S_HDMV/PGS
Codec ID/Info : Picture based subtitle format used on BDs/HD-DVDs
Duration : 2 h 10 min
Title : themoviesboss
Language : English
Default : No
Forced : No



Screenshots:















---------------------------------

Files:

  • The.Remains.of.the.Day.1993.BluRay.1080p.10Bit.Hindi.English.DD5.1.ESubs.x265-themoviesboss.mkv (2.0 GB)

There are currently no comments. Feel free to leave one :)

Code:

  • udp://open.stealth.si:80/announce
  • udp://exodus.desync.com:6969/announce
  • udp://tracker.cyberia.is:6969/announce
  • udp://tracker.opentrackr.org:1337/announce
  • udp://tracker.torrent.eu.org:451/announce
  • udp://explodie.org:6969/announce
  • udp://tracker.birkenwald.de:6969/announce
  • udp://tracker.moeking.me:6969/announce
  • udp://ipv4.tracker.harry.lu:80/announce
  • udp://9.rarbg.to:2780/announce
  • udp://tracker.jonaslsa.com:6969/announce
  • udp://movies.zsw.ca:6969/announce
  • udp://free.publictracker.xyz:6969/announce
  • udp://ipv6.tracker.monitorit4.me:6969/announce
  • udp://tracker.skynetcloud.site:6969/announce