Swarm.S01.720p.AMZN.WEB-DL.Hindi.English.AAC.H.264-themoviesboss

  • Category TV
  • Type HD
  • Language Hindi
  • Total size 2.1 GB
  • Uploaded By tmb001
  • Downloads 434
  • Last checked 11 months ago
  • Date uploaded 11 months ago
  • Seeders 17
  • Leechers 21

Infohash : FECA4AACBA80A0CD99B5065167C1A324B9834C71

Warning! Use a VPN When Downloading Torrents!
Your IP Address is . Location
Your Internet Provider can see when you download torrents! Hide your IP Address with a VPN
1337x recommends using Trust.Zone VPN to hide your torrenting. It's FREE HIDE ME NOW




Media Info



Format : Matroska
Format version : Version 4
File size : 306 MiB
Duration : 36 min 0 s
Overall bit rate : 1 188 kb/s
Encoded date : UTC 2023-03-18 06:09:04
Writing library : libebml v1.4.2 + libmatroska v1.6.4

Video
ID : 2
Format : AVC
Format/Info : Advanced Video Codec
Format profile : [email protected]
Format settings : CABAC / 5 Ref Frames
Format settings, CABAC : Yes
Format settings, Reference frames : 5 frames
Codec ID : V_MPEG4/ISO/AVC
Duration : 35 min 59 s
Bit rate : 1 054 kb/s
Width : 1 280 pixels
Height : 720 pixels
Display aspect ratio : 16:9
Frame rate mode : Constant
Frame rate : 23.976 (24000/1001) FPS
Color space : YUV
Chroma subsampling : 4:2:0
Bit depth : 8 bits
Scan type : Progressive
Bits/(Pixel*Frame) : 0.048
Stream size : 271 MiB (89%)
Title : themoviesboss
Language : English
Default : Yes
Forced : No
Color range : Limited
Color primaries : BT.709
Transfer characteristics : BT.709
Matrix coefficients : BT.709

Audio #1
ID : 3
Format : AAC LC SBR
Format/Info : Advanced Audio Codec Low Complexity with Spectral Band Replication
Commercial name : HE-AAC
Format settings : Explicit
Codec ID : A_AAC-2
Duration : 36 min 0 s
Bit rate : 64.0 kb/s
Channel(s) : 2 channels
Channel layout : L R
Sampling rate : 48.0 kHz
Frame rate : 23.438 FPS (2048 SPF)
Compression mode : Lossy
Stream size : 16.5 MiB (5%)
Title : themoviesboss
Language : Hindi
Default : Yes
Forced : No

Audio #2
ID : 4
Format : AAC LC SBR
Format/Info : Advanced Audio Codec Low Complexity with Spectral Band Replication
Commercial name : HE-AAC
Format settings : Explicit
Codec ID : A_AAC-2
Duration : 35 min 59 s
Bit rate : 64.0 kb/s
Channel(s) : 2 channels
Channel layout : L R
Sampling rate : 48.0 kHz
Frame rate : 23.438 FPS (2048 SPF)
Compression mode : Lossy
Stream size : 16.5 MiB (5%)
Title : themoviesboss
Language : English
Default : No
Forced : No

Text #1
ID : 1
Format : UTF-8
Codec ID : S_TEXT/UTF8
Codec ID/Info : UTF-8 Plain Text
Duration : 30 s 200 ms
Bit rate : 42 b/s
Frame rate : 0.033 FPS
Count of elements : 1
Stream size : 160 Bytes (0%)
Title : TheMoviesBoss
Language : English
Default : Yes
Forced : Yes

Text #2
ID : 5
Format : UTF-8
Codec ID : S_TEXT/UTF8
Codec ID/Info : UTF-8 Plain Text
Duration : 34 min 45 s
Bit rate : 67 b/s
Frame rate : 0.279 FPS
Count of elements : 582
Stream size : 17.1 KiB (0%)
Title : themoviesboss[Full]
Language : English
Default : No
Forced : No



Screenshots:










---------------------------------

Files:

TheMoviesBoss - Swarm.S01.720p.AMZN.WEB-DL.Multi.AAC2.0.H.264-themoviesboss
  • Downloaded From themoviesboss.txt (0.1 KB)
  • TheMoviesBoss - Swarm.S01E05.Girl.Bye.720p.AMZN.WEB-DL.Multi.AAC2.0.H.264-themoviesboss.mkv (218.2 MB)
  • TheMoviesBoss - Swarm.S01E03.Taste.720p.AMZN.WEB-DL.Multi.AAC2.0.H.264-themoviesboss.mkv (273.4 MB)
  • TheMoviesBoss - Swarm.S01E02.Honey.720p.AMZN.WEB-DL.Multi.AAC2.0.H.264-themoviesboss.mkv (291.7 MB)
  • TheMoviesBoss - Swarm.S01E01.Stung.720p.AMZN.WEB-DL.Multi.AAC2.0.H.264-themoviesboss.mkv (306.0 MB)
  • TheMoviesBoss - Swarm.S01E07.Only.God.Makes.Happy.Endings.720p.AMZN.WEB-DL.Multi.AAC2.0.H.264-themoviesboss.mkv (341.7 MB)
  • TheMoviesBoss - Swarm.S01E04.Running.Scared.720p.AMZN.WEB-DL.Multi.AAC2.0.H.264-themoviesboss.mkv (358.6 MB)
  • TheMoviesBoss - Swarm.S01E06.Fallin.Through.The.Cracks.720p.AMZN.WEB-DL.Multi.AAC2.0.H.264-themoviesboss.mkv (366.8 MB)

Comments

Code:

  • udp://open.stealth.si:80/announce
  • udp://exodus.desync.com:6969/announce
  • udp://tracker.cyberia.is:6969/announce
  • udp://tracker.opentrackr.org:1337/announce
  • udp://tracker.torrent.eu.org:451/announce
  • udp://explodie.org:6969/announce
  • udp://tracker.birkenwald.de:6969/announce
  • udp://tracker.moeking.me:6969/announce
  • udp://ipv4.tracker.harry.lu:80/announce
  • udp://9.rarbg.to:2780/announce
  • udp://tracker.jonaslsa.com:6969/announce
  • udp://movies.zsw.ca:6969/announce
  • udp://free.publictracker.xyz:6969/announce
  • udp://ipv6.tracker.monitorit4.me:6969/announce
  • udp://tracker.skynetcloud.site:6969/announce