The.Devils.Own.1997.m1080p.Bluray.x264.DUAL

  • Category Movies
  • Type HD
  • Language English
  • Total size 2.3 GB
  • Uploaded By iCMAL
  • Downloads 138
  • Last checked 1 year ago
  • Date uploaded 1 year ago
  • Seeders 6
  • Leechers 2

Infohash : 505F07ADA738CB130DA18CB8AD3EFFDB8016F213

Warning! Use a V𝙿N When Downloading Torrents!
Your IP Address is . Location
Your Internet Provider can see when you download torrents! Hide your IP Address with a V𝙿N
1337x recommends using Trust.Zone V𝙿N to hide your torrenting. It's FREE HIDE ME NOW


The.Devils.Own.1997.m1080p.Bluray.x264.DUAL





Quote:


Harrison Ford BoxSet m1080p Dual\The.Devils.Own.1997.m1080p.Bluray.x264.DUAL\The.Devils.Own.1997.m1080p.Bluray.x264.DUAL.mkv
Format : Matroska
Format version : Version 4
File size : 2.29 GiB
Duration : 1 h 51 min
Overall bit rate : 2 949 kb/s
Encoded date : UTC 2020-06-07 11:02:15
Writing application : mkvmerge v10.0.0 ('To Drown In You') 64bit
Writing library : libebml v1.3.4 + libmatroska v1.4.5

Video
ID : 1
Format : AVC
Format/Info : Advanced Video Codec
Format profile : [email protected]
Format settings : CABAC / 4 Ref Frames
Format settings, CABAC : Yes
Format settings, Reference frames : 4 frames
Codec ID : V_MPEG4/ISO/AVC
Duration : 1 h 51 min
Bit rate : 2 500 kb/s
Width : 1 920 pixels
Height : 800 pixels
Display aspect ratio : 2.40:1
Frame rate mode : Constant
Frame rate : 23.976 (23976/1000) FPS
Color space : YUV
Chroma subsampling : 4:2:0
Bit depth : 8 bits
Scan type : Progressive
Bits/(Pixel*Frame) : 0.068
Stream size : 1.94 GiB (85%)
Writing library : x264 core 152 r2851M ba24899
Encoding settings : cabac=1 / ref=4 / deblock=1:-1:-1 / analyse=0x3:0x113 / me=umh / subme=9 / psy=1 / psy_rd=1.00:0.15 / mixed_ref=1 / me_range=24 / chroma_me=1 / trellis=2 / 8x8dct=1 / cqm=0 / deadzone=21,11 / fast_pskip=1 / chroma_qp_offset=-3 / threads=32 / lookahead_threads=4 / sliced_threads=0 / nr=0 / decimate=1 / interlaced=0 / bluray_compat=0 / constrained_intra=0 / bframes=3 / b_pyramid=2 / b_adapt=2 / b_bias=0 / direct=3 / weightb=1 / open_gop=0 / weightp=2 / keyint=250 / keyint_min=25 / scenecut=40 / intra_refresh=0 / rc_lookahead=50 / rc=2pass / mbtree=1 / bitrate=2500 / ratetol=1.0 / qcomp=0.60 / qpmin=0 / qpmax=69 / qpstep=4 / cplxblur=20.0 / qblur=0.5 / vbv_maxrate=31250 / vbv_bufsize=31250 / nal_hrd=none / filler=0 / ip_ratio=1.40 / aq=3:1.00
Default : Yes
Forced : No

Audio #1
ID : 2
Format : AC-3
Format/Info : Audio Coding 3
Commercial name : Dolby Digital
Codec ID : A_AC3
Duration : 1 h 51 min
Bit rate mode : Constant
Bit rate : 224 kb/s
Channel(s) : 2 channels
Channel layout : L R
Sampling rate : 48.0 kHz
Frame rate : 31.250 FPS (1536 SPF)
Compression mode : Lossy
Delay relative to video : -43 ms
Stream size : 178 MiB (8%)
Language : Turkish
Service kind : Complete Main
Default : Yes
Forced : No

Audio #2
ID : 3
Format : AAC LC
Format/Info : Advanced Audio Codec Low Complexity
Codec ID : A_AAC-2
Duration : 1 h 51 min
Bit rate : 224 kb/s
Channel(s) : 6 channels
Channel layout : C L R Ls Rs LFE
Sampling rate : 48.0 kHz
Frame rate : 46.875 FPS (1024 SPF)
Compression mode : Lossy
Delay relative to video : -43 ms
Stream size : 178 MiB (8%)
Language : English
Default : No
Forced : No

Text
ID : 4
Format : UTF-8
Codec ID : S_TEXT/UTF8
Codec ID/Info : UTF-8 Plain Text
Duration : 1 h 44 min
Bit rate : 29 b/s
Count of elements : 630
Stream size : 22.7 KiB (0%)
Title : TAM
Language : Turkish
Default : No
Forced : No



Files:

The.Devils.Own.1997.m1080p.Bluray.x264.DUAL
  • The.Devils.Own.1997.m1080p.Bluray.x264.DUAL.mkv (2.3 GB)
  • The.Devils.Own.1997.m1080p.Bluray.x264.DUAL.mkv_thumbs.jpg (154.2 KB)
  • [TGx]Downloaded from torrentgalaxy.to .txt (0.7 KB)

There are currently no comments. Feel free to leave one :)

Code:

  • udp://tracker.coppersurfer.tk:6969/announce
  • udp://tracker.leechers-paradise.org:6969/announce
  • udp://9.rarbg.to:2710/announce
  • udp://exodus.desync.com:6969/announce
  • udp://tracker.uw0.xyz:6969/announce
  • udp://open.stealth.si:80/announce
  • udp://tracker.tiny-vps.com:6969/announce
  • udp://open.demonii.si:1337/announc4
  • udp://tracker.shkinev.me:6969/announce
  • udp://tracker.zerobytes.xyz:1337/announce
  • udp://aaa.army:8866/announce
  • udp://open.demonii.com:1337
  • udp://tracker.cyberia.is:6969/announce
  • udp://cutiegirl.ru:6969/announce
  • udp://open.demonii.com:1337